<?xml version="1.0" standalone="no"?><!DOCTYPE svg PUBLIC "-//W3C//DTD SVG 1.1//EN" "http://www.w3.org/Graphics/SVG/1.1/DTD/svg11.dtd" ><svg xmlns="http://www.w3.org/2000/svg"><metadata></metadata><defs><font id="icomoon" horiz-adv-x="1097"><font-face font-family="icomoon" font-weight="400" font-stretch="normal" units-per-em="1024" panose-1="0 0 0 0 0 0 0 0 0 0" ascent="960" descent="-64" x-height="0" bbox="0 -73 1097 960" underline-thickness="0" underline-position="0" unicode-range="U+0020-f07d" /><missing-glyph horiz-adv-x="512" d="M0 0 l0 0 l0 0 l0 0 Z" /><glyph glyph-name="" unicode="&#xe800;" d="M831 265 q0 23 -15 39 l-119 118 q-16 17 -39 17 q-24 0 -41 -19 q1 -1 11 -10 q9 -9 12 -12 q3 -3 9 -11 q6 -9 7 -15 q1 -6 2 -15 q0 -24 -16 -39 q-16 -15 -39 -16 q-8 0 -15 2 q-7 2 -15 7 q-7 5 -11 9 q-4 4 -12 12 q-8 8 -10 11 q-20 -18 -20 -41 q0 -24 17 -39 l117 -119 q16 -15 39 -15 q23 0 39 15 l84 83 q15 16 15 38 l0 0 ZM430 668 q0 23 -15 39 l-118 118 q-16 16 -39 16 q-22 0 -39 -15 l-84 -84 q-16 -15 -16 -38 q0 -23 16 -39 l119 -119 q15 -15 39 -15 q23 0 41 17 q-2 2 -11 12 q-10 9 -13 12 q-3 3 -8 10 q-5 7 -7 14 q-2 8 -2 17 q0 22 15 39 q16 16 39 15 q9 0 17 -2 q7 -2 14 -7 q7 -5 10 -8 q3 -3 12 -13 q10 -9 12 -11 q18 18 18 42 ZM942 265 q0 -69 -49 -116 l-84 -83 q-47 -48 -116 -48 q-69 0 -116 49 l-118 118 q-47 48 -47 117 q0 69 50 118 l-50 51 q-50 -51 -119 -51 q-69 0 -117 48 l-119 119 q-48 48 -48 117 q0 69 48 116 l84 84 q48 47 117 47 q69 0 117 -48 l117 -119 q48 -47 48 -116 q0 -70 -51 -120 l51 -50 q49 50 118 50 q69 0 117 -48 l119 -119 q48 -48 48 -116 l0 0 Z" /><glyph glyph-name="" unicode="&#xe801;" d="M251 234 l-147 -146 q-5 -6 -13 -6 q-6 0 -13 6 q-5 5 -5 13 q0 8 5 13 l146 146 q6 5 14 5 q7 0 13 -5 q5 -6 5 -13 q0 -7 -5 -13 ZM347 210 l0 -183 q0 -8 -5 -13 q-5 -5 -13 -5 q-8 0 -13 5 q-4 5 -5 13 l0 183 q0 9 5 14 q6 5 13 5 q7 0 13 -5 q6 -5 5 -14 ZM219 338 q0 -8 -5 -13 q-5 -5 -13 -5 l-183 0 q-8 0 -13 5 q-5 5 -5 13 q0 9 5 14 q5 5 13 5 l183 0 q8 0 13 -5 q5 -5 5 -14 ZM942 265 q0 -69 -49 -116 l-84 -83 q-47 -48 -116 -48 q-69 0 -116 49 l-191 192 q-12 11 -25 31 l138 11 l155 -157 q16 -15 39 -15 q24 0 39 15 l84 83 q15 16 15 38 q0 23 -15 39 l-157 157 l11 137 q20 -13 31 -24 l193 -193 q48 -49 48 -116 l0 0 ZM589 678 l-136 -10 l-156 157 q-16 16 -39 16 q-22 0 -39 -15 l-84 -84 q-16 -15 -16 -38 q0 -23 16 -39 l157 -157 l-10 -137 q-21 12 -33 25 l-192 191 q-48 49 -48 117 q0 69 48 116 l84 84 q48 47 117 47 q69 0 117 -48 l190 -192 q13 -12 24 -33 l0 0 ZM951 631 q0 -8 -5 -13 q-5 -5 -13 -5 l-183 0 q-9 0 -14 5 q-5 5 -5 13 q0 8 5 13 q5 4 14 5 l183 0 q8 0 13 -5 q5 -6 5 -13 ZM640 942 l0 -183 q0 -8 -5 -13 q-5 -5 -13 -5 q-9 0 -14 5 q-5 5 -5 13 l0 183 q0 8 5 13 q5 5 14 5 q8 0 13 -5 q5 -5 5 -13 ZM872 856 l-146 -147 q-6 -5 -13 -5 q-7 0 -13 5 q-5 6 -5 13 q0 8 5 14 l146 145 q6 5 13 5 q7 0 13 -5 q6 -5 6 -12 q0 -7 -6 -13 Z" /><glyph glyph-name="" unicode="&#xe802;" d="M352 160 l-28 -28 q-6 -6 -13 -6 q-7 0 -13 6 l-266 266 q-6 6 -6 13 q0 7 6 13 l266 267 q5 6 13 6 q8 0 13 -6 l28 -29 q6 -5 6 -13 q0 -8 -6 -13 l-224 -225 l224 -224 q6 -6 6 -13 q0 -8 -6 -14 ZM690 771 l-213 -739 q-2 -7 -9 -11 q-7 -4 -13 -1 l-35 9 q-8 3 -11 9 q-3 7 -2 15 l213 737 q3 8 9 11 q6 3 13 2 l36 -10 q7 -2 11 -9 q4 -7 1 -13 l0 0 ZM1066 398 l-266 -266 q-6 -6 -14 -6 q-7 0 -13 6 l-29 28 q-5 6 -5 14 q0 7 5 13 l225 224 l-225 225 q-5 6 -5 13 q0 7 5 13 l29 29 q6 6 13 6 q8 0 14 -6 l266 -267 q5 -5 5 -13 q0 -8 -5 -13 Z" /><glyph glyph-name="" unicode="&#xe803;" d="M741 204 q0 -22 -15 -39 l-78 -77 q-16 -16 -39 -16 q-22 0 -39 16 l-168 169 l-168 -169 q-16 -16 -38 -16 q-23 0 -39 16 l-78 77 q-17 17 -17 39 q0 23 17 39 l168 168 l-168 168 q-17 16 -17 39 q0 23 17 39 l78 78 q16 16 39 16 q22 0 38 -16 l168 -168 l168 168 q17 16 39 16 q23 0 39 -16 l78 -78 q15 -15 15 -39 q0 -24 -15 -39 l-168 -168 l168 -168 q15 -15 15 -39 Z" /><glyph glyph-name="" unicode="&#xe804;" d="M334 398 l-266 -266 q-6 -6 -13 -6 q-7 0 -13 6 l-29 28 q-6 6 -6 14 q0 7 6 13 l225 224 l-225 225 q-6 6 -6 13 q0 7 6 13 l29 29 q5 6 13 6 q8 0 13 -6 l266 -267 q6 -5 6 -13 q0 -8 -6 -13 ZM951 137 l0 -36 q0 -8 -5 -13 q-5 -6 -13 -6 l-549 0 q-8 0 -13 6 q-5 5 -5 13 l0 36 q0 8 5 13 q5 5 13 5 l549 0 q8 0 13 -5 q5 -5 5 -13 Z" /><glyph glyph-name="" unicode="&#xe805;" d="M614 539 q0 -7 -6 -13 l-266 -266 q-5 -6 -13 -6 q-8 0 -13 6 l-266 266 q-6 6 -6 13 q0 7 6 13 l28 29 q6 6 13 6 q7 0 13 -6 l225 -224 l225 224 q5 6 13 6 q8 0 13 -6 l28 -29 q6 -5 6 -13 l0 0 Z" /><glyph glyph-name="" unicode="&#xe806;" d="M415 641 l-98 -258 q19 0 78 -1 q60 -1 91 -1 q12 0 33 1 q-49 145 -104 259 l0 0 ZM0 9 l1 45 q13 4 32 7 q18 3 33 6 q14 3 28 8 q15 5 26 18 q11 12 17 28 l135 353 l160 413 l74 0 q4 -8 6 -12 l117 -274 q19 -45 61 -148 q42 -102 65 -157 q9 -19 33 -82 q25 -64 41 -97 q12 -25 20 -31 q11 -10 50 -18 q39 -8 48 -11 q4 -23 4 -33 q0 -2 -1 -7 q-1 -5 0 -8 q-36 0 -108 5 q-73 5 -110 4 q-43 0 -123 -4 q-80 -4 -101 -4 q0 24 2 44 l75 16 q1 0 7 1 q6 1 9 2 q3 1 8 3 q5 2 9 4 q5 2 7 4 q2 3 5 7 q3 4 1 8 q0 9 -18 55 q-17 46 -41 101 q-23 56 -24 58 l-257 1 q-15 -34 -44 -112 q-30 -78 -29 -93 q0 -12 8 -21 q8 -10 25 -15 q16 -5 28 -7 q11 -2 32 -5 q22 -3 24 -2 q1 -11 1 -33 q0 -5 -2 -16 q-33 0 -100 6 q-66 6 -99 6 q-5 0 -15 -3 q-10 -3 -12 -2 q-47 -8 -108 -8 l0 0 Z" /><glyph glyph-name="" unicode="&#xe807;" d="M317 91 q42 -19 80 -19 q215 0 215 192 q0 65 -23 103 q-16 25 -36 42 q-21 17 -38 27 q-17 9 -46 14 q-29 5 -48 6 q-20 1 -54 1 q-41 0 -58 -6 q0 -30 0 -90 q0 -60 -1 -91 q0 -4 0 -38 q0 -34 0 -55 q0 -22 2 -48 q2 -27 7 -38 l0 0 ZM309 518 q24 -4 63 -4 q47 0 82 7 q34 7 62 25 q28 19 42 52 q14 32 15 80 q0 40 -16 70 q-16 30 -46 47 q-30 18 -61 25 q-32 7 -71 8 q-29 0 -75 -7 q0 -29 3 -86 q3 -58 2 -87 q0 -16 0 -46 q0 -31 -1 -45 q0 -27 1 -39 l0 0 ZM0 9 l1 54 q9 2 49 9 q40 7 61 16 q4 7 7 15 q3 8 4 19 q1 12 4 19 q3 7 1 21 q-2 15 0 20 l0 37 q0 561 -12 585 q-2 5 -13 9 q-10 3 -25 6 q-16 3 -29 4 q-13 1 -28 3 q-14 2 -17 2 l-2 47 q56 1 195 6 q138 5 213 5 q13 0 38 0 q26 0 39 0 q40 0 78 -7 q38 -7 74 -24 q36 -18 61 -40 q26 -23 42 -61 q17 -38 17 -78 q0 -29 -9 -55 q-10 -26 -23 -41 q-13 -15 -37 -33 q-23 -17 -42 -25 q-18 -8 -48 -23 q88 -20 147 -77 q60 -56 59 -142 q0 -56 -21 -102 q-20 -46 -53 -75 q-33 -29 -79 -48 q-46 -20 -93 -28 q-47 -8 -100 -8 q-26 0 -76 2 q-50 2 -76 1 q-60 0 -175 -6 q-115 -6 -132 -7 l0 0 Z" /><glyph glyph-name="" unicode="&#xe808;" d="M0 10 l10 49 q3 1 46 12 q43 11 64 22 q16 19 23 57 q1 4 36 166 q35 162 65 310 q29 149 29 169 l0 14 q-13 8 -30 12 q-18 4 -40 4 q-23 0 -33 3 l10 59 q20 -2 69 -4 q49 -2 86 -4 q37 -2 68 -1 q28 0 57 1 q28 1 68 4 q40 3 57 4 q-2 -22 -11 -51 q-17 -6 -58 -16 q-41 -11 -61 -20 q-5 -10 -9 -23 q-3 -14 -5 -24 q-2 -10 -4 -25 q-2 -16 -4 -25 q-15 -84 -50 -240 q-35 -155 -44 -202 q-1 -6 -7 -33 q-6 -28 -11 -52 q-6 -25 -10 -47 q-4 -23 -4 -33 l1 -10 q9 -4 106 -19 q-2 -25 -10 -56 q-6 0 -18 -1 q-12 -1 -18 -1 q-17 0 -51 6 q-33 6 -49 6 q-79 1 -117 1 q-29 0 -81 -5 q-53 -5 -70 -6 l0 -1 Z" /><glyph glyph-name="" unicode="&#xe809;" d="M962 9 q-26 0 -76 2 q-50 2 -77 2 q-25 0 -75 -2 q-50 -2 -76 -2 q-14 0 -21 12 q-7 12 -7 26 q0 17 9 26 q9 9 23 9 q13 0 29 5 q17 4 26 9 q18 11 18 80 l0 223 q0 12 -1 17 q-7 3 -28 3 l-385 0 q-23 0 -30 -3 q0 -5 0 -17 l-1 -212 q0 -81 21 -94 q10 -5 27 -7 q17 -3 33 -3 q15 0 25 -8 q11 -8 12 -26 q0 -15 -8 -27 q-7 -12 -20 -13 q-27 0 -80 2 q-53 2 -79 2 q-24 0 -73 -2 q-48 -2 -72 -2 q-14 0 -21 12 q-7 12 -7 26 q0 17 9 25 q10 8 21 10 q11 2 26 5 q16 2 25 9 q18 13 18 82 l-1 31 l0 465 q0 2 1 15 q1 12 0 21 q-1 9 -1 22 q0 12 -2 24 q-2 13 -4 21 q-2 8 -6 18 q-4 10 -9 10 q-8 5 -26 7 q-17 1 -29 2 q-13 1 -24 7 q-11 6 -10 26 q0 15 6 27 q6 12 20 13 q27 0 80 -2 q54 -2 79 -2 q24 0 73 2 q49 2 72 2 q14 0 21 -13 q7 -13 7 -27 q0 -17 -9 -25 q-9 -8 -23 -8 q-13 0 -28 -2 q-16 -3 -25 -8 q-19 -12 -19 -92 l1 -182 q0 -12 0 -19 q7 -2 22 -2 l400 0 q14 0 21 2 q1 7 1 19 l0 182 q0 80 -19 92 q-10 6 -34 8 q-24 1 -38 7 q-14 6 -14 28 q0 15 7 27 q7 12 21 13 q25 0 76 -2 q51 -2 75 -2 q25 0 74 2 q49 2 73 2 q15 0 22 -13 q7 -13 7 -27 q0 -17 -10 -25 q-10 -8 -23 -8 q-12 0 -29 -2 q-18 -3 -25 -8 q-20 -13 -20 -92 l1 -538 q0 -68 19 -80 q9 -6 26 -7 q16 -1 30 -4 q15 -2 24 -9 q9 -7 10 -24 q0 -16 -6 -28 q-6 -12 -20 -13 Z" /><glyph glyph-name="" unicode="&#xe80a;" d="M1024 192 l0 -73 q0 -15 -11 -25 q-12 -11 -26 -12 l-950 0 q-15 0 -26 12 q-10 11 -11 25 l0 73 q0 15 11 26 q12 10 26 11 l950 0 q15 0 26 -11 q10 -12 11 -26 ZM805 411 l0 -73 q0 -15 -11 -25 q-12 -10 -26 -11 l-731 0 q-15 0 -26 11 q-10 11 -11 25 l0 73 q0 15 11 26 q12 10 26 11 l731 0 q15 0 26 -11 q10 -12 11 -26 ZM951 631 l0 -73 q0 -15 -11 -26 q-11 -11 -26 -11 l-877 0 q-15 0 -26 11 q-10 11 -11 26 l0 73 q0 15 11 26 q12 11 26 10 l877 0 q15 0 26 -10 q11 -10 11 -26 ZM731 850 l0 -73 q0 -15 -10 -26 q-10 -11 -26 -10 l-658 0 q-15 0 -26 10 q-10 10 -11 26 l0 73 q0 15 11 26 q12 11 26 11 l658 0 q15 0 26 -11 q11 -11 10 -26 Z" /><glyph glyph-name="" unicode="&#xe80b;" d="M1024 192 l0 -73 q0 -15 -11 -25 q-12 -11 -26 -12 l-950 0 q-15 0 -26 12 q-10 11 -11 25 l0 73 q0 15 11 26 q12 10 26 11 l950 0 q15 0 26 -11 q10 -12 11 -26 ZM805 411 l0 -73 q0 -15 -11 -25 q-12 -10 -26 -11 l-512 0 q-14 0 -26 11 q-11 11 -11 25 l0 73 q0 15 11 26 q12 10 26 11 l512 0 q15 0 26 -11 q10 -12 11 -26 ZM951 631 l0 -73 q0 -15 -11 -26 q-11 -11 -26 -11 l-804 0 q-15 0 -26 11 q-11 11 -11 26 l0 73 q0 15 11 26 q11 11 26 10 l804 0 q15 0 26 -10 q11 -10 11 -26 ZM731 850 l0 -73 q0 -15 -10 -26 q-10 -11 -26 -10 l-366 0 q-15 0 -26 10 q-11 10 -10 26 l0 73 q0 15 10 26 q10 11 26 11 l366 0 q15 0 26 -11 q11 -11 10 -26 Z" /><glyph glyph-name="" unicode="&#xe80c;" d="M1024 192 l0 -73 q0 -15 -11 -25 q-12 -11 -26 -12 l-950 0 q-15 0 -26 12 q-10 11 -11 25 l0 73 q0 15 11 26 q12 10 26 11 l950 0 q15 0 26 -11 q10 -12 11 -26 ZM1024 411 l0 -73 q0 -15 -11 -25 q-12 -10 -26 -11 l-731 0 q-14 0 -26 11 q-11 11 -11 25 l0 73 q0 15 11 26 q12 10 26 11 l731 0 q15 0 26 -11 q10 -12 11 -26 ZM1024 631 l0 -73 q0 -15 -11 -26 q-12 -11 -26 -11 l-877 0 q-15 0 -26 11 q-11 11 -11 26 l0 73 q0 15 11 26 q11 11 26 10 l877 0 q15 0 26 -10 q10 -10 11 -26 ZM1024 850 l0 -73 q0 -15 -11 -26 q-12 -11 -26 -10 l-658 0 q-15 0 -26 10 q-11 10 -10 26 l0 73 q0 15 10 26 q10 11 26 11 l658 0 q15 0 26 -11 q10 -11 11 -26 Z" /><glyph glyph-name="" unicode="&#xe80d;" d="M219 155 q0 -45 -32 -78 q-31 -32 -77 -31 q-47 1 -78 31 q-32 31 -32 78 q0 47 32 78 q31 31 78 32 q46 1 77 -32 q32 -33 32 -78 ZM219 448 q0 -46 -32 -78 q-31 -32 -77 -32 q-47 0 -78 32 q-32 32 -32 78 q0 46 32 78 q31 32 78 32 q46 0 77 -32 q32 -32 32 -78 l0 0 ZM1024 210 l0 -109 q0 -7 -5 -13 q-5 -7 -13 -6 l-695 0 q-8 0 -13 6 q-5 5 -5 13 l0 109 q0 8 5 13 q5 5 13 6 l695 0 q7 0 13 -6 q6 -6 5 -13 ZM219 741 q0 -46 -32 -78 q-31 -32 -77 -32 q-47 0 -78 32 q-32 32 -32 78 q0 46 32 78 q31 31 78 31 q46 0 77 -31 q32 -32 32 -78 ZM1024 503 l0 -110 q0 -7 -5 -13 q-5 -5 -13 -5 l-695 0 q-8 0 -13 5 q-5 6 -5 13 l0 110 q0 7 5 13 q5 5 13 5 l695 0 q7 0 13 -5 q6 -6 5 -13 l0 0 ZM1024 795 l0 -109 q0 -8 -5 -13 q-5 -5 -13 -6 l-695 0 q-8 0 -13 6 q-5 6 -5 13 l0 109 q0 8 5 13 q5 6 13 6 l695 0 q7 0 13 -6 q6 -5 5 -13 Z" /><glyph glyph-name="" unicode="&#xe80e;" d="M219 649 l0 -329 q0 -7 -5 -13 q-5 -6 -13 -5 q-7 0 -13 5 l-164 165 q-6 5 -6 13 q0 8 6 13 l164 164 q6 5 13 5 q8 0 13 -5 q5 -5 5 -13 l0 0 ZM1024 210 l0 -109 q0 -7 -5 -13 q-5 -7 -13 -6 l-988 0 q-7 0 -13 6 q-6 5 -5 13 l0 109 q0 8 5 13 q5 5 13 6 l988 0 q7 0 13 -6 q6 -6 5 -13 ZM1024 430 l0 -110 q0 -7 -5 -13 q-5 -6 -13 -5 l-622 0 q-7 0 -13 5 q-6 5 -5 13 l0 110 q0 7 5 13 q5 6 13 5 l622 0 q7 0 13 -5 q6 -5 5 -13 ZM1024 649 l0 -110 q0 -7 -5 -12 q-5 -5 -13 -6 l-622 0 q-7 0 -13 6 q-6 6 -5 12 l0 110 q0 8 5 13 q5 5 13 5 l622 0 q7 0 13 -5 q6 -5 5 -13 ZM1024 869 l0 -110 q0 -8 -5 -13 q-5 -5 -13 -5 l-988 0 q-7 0 -13 5 q-6 5 -5 13 l0 110 q0 7 5 12 q5 5 13 6 l988 0 q7 0 13 -6 q6 -6 5 -12 Z" /><glyph glyph-name="" unicode="&#xe80f;" d="M201 485 q0 -8 -5 -13 l-164 -165 q-5 -5 -14 -5 q-7 0 -13 5 q-6 5 -5 13 l0 329 q0 8 5 13 q5 5 13 5 q9 0 14 -5 l164 -164 q5 -5 5 -13 l0 0 ZM1024 210 l0 -109 q0 -7 -5 -13 q-5 -7 -13 -6 l-988 0 q-7 0 -13 6 q-6 5 -5 13 l0 109 q0 8 5 13 q5 5 13 6 l988 0 q7 0 13 -6 q6 -6 5 -13 ZM1024 430 l0 -110 q0 -7 -5 -13 q-5 -6 -13 -5 l-622 0 q-7 0 -13 5 q-6 5 -5 13 l0 110 q0 7 5 13 q5 6 13 5 l622 0 q7 0 13 -5 q6 -5 5 -13 ZM1024 649 l0 -110 q0 -7 -5 -12 q-5 -5 -13 -6 l-622 0 q-7 0 -13 6 q-6 6 -5 12 l0 110 q0 8 5 13 q5 5 13 5 l622 0 q7 0 13 -5 q6 -5 5 -13 ZM1024 869 l0 -110 q0 -8 -5 -13 q-5 -5 -13 -5 l-988 0 q-7 0 -13 5 q-6 5 -5 13 l0 110 q0 7 5 12 q5 5 13 6 l988 0 q7 0 13 -6 q6 -6 5 -12 Z" /><glyph glyph-name="" unicode="&#xe810;" d="M218 34 q0 -46 -32 -71 q-31 -26 -76 -27 q-62 0 -99 38 l32 50 q29 -26 61 -26 q17 0 29 9 q12 8 12 24 q0 36 -60 32 l-14 32 q4 6 18 24 q14 19 25 32 q10 13 20 22 l0 1 q-9 0 -28 -1 q-18 -1 -27 0 l0 -31 l-61 0 l0 87 l191 0 l0 -50 l-54 -67 q28 -6 46 -28 q17 -21 17 -50 l0 0 ZM219 393 l0 -91 l-207 0 q-4 20 -4 30 q0 30 15 54 q14 23 31 38 q18 16 38 28 q21 12 32 25 q11 12 14 25 q0 15 -9 23 q-9 8 -23 7 q-25 0 -46 -33 l-48 34 q14 29 41 45 q28 16 61 16 q41 0 69 -23 q29 -24 29 -65 q0 -28 -19 -52 q-20 -23 -43 -37 q-24 -13 -44 -28 q-19 -16 -20 -31 l73 0 l0 35 l60 0 l0 0 ZM1024 210 l0 -109 q0 -8 -5 -13 q-5 -6 -13 -6 l-695 0 q-8 0 -13 6 q-5 5 -5 13 l0 109 q0 9 5 14 q5 5 13 5 l695 0 q7 0 13 -6 q6 -6 5 -13 ZM219 724 l0 -57 l-191 0 l0 57 l61 0 q0 23 0 70 q0 47 1 69 l0 7 l-1 0 q-5 -10 -29 -31 l-41 43 l78 73 l61 0 l0 -231 l61 0 ZM1024 503 l0 -110 q0 -7 -5 -13 q-5 -5 -13 -5 l-695 0 q-8 0 -13 5 q-5 6 -5 13 l0 110 q0 7 5 13 q5 5 13 5 l695 0 q7 0 13 -5 q6 -6 5 -13 l0 0 ZM1024 795 l0 -109 q0 -8 -5 -13 q-5 -5 -13 -6 l-695 0 q-8 0 -13 6 q-5 6 -5 13 l0 109 q0 8 5 13 q5 6 13 6 l695 0 q7 0 13 -6 q6 -5 5 -13 Z" /><glyph glyph-name="" unicode="&#xe811;" d="M28 833 q-22 1 -26 2 l-2 50 q7 0 23 0 q34 0 64 -2 q76 -4 94 -4 q49 0 97 2 q66 2 83 3 q32 0 50 1 l-1 -8 l1 -37 l0 -5 q-34 -5 -71 -5 q-34 0 -45 -14 q-7 -8 -7 -75 q0 -8 0 -19 q0 -10 0 -15 l1 -131 l8 -160 q3 -70 29 -114 q20 -34 55 -54 q50 -26 100 -26 q60 0 110 16 q32 10 56 29 q28 20 38 37 q21 31 30 64 q12 42 12 131 q0 45 -2 74 q-2 29 -6 70 q-4 41 -8 91 l-2 33 q-3 38 -14 51 q-19 20 -44 19 l-57 -1 l-8 2 l1 49 l48 0 l117 -6 q44 -2 112 6 l10 -2 q4 -21 4 -28 q0 -5 -2 -18 q-26 -7 -49 -8 q-42 -6 -45 -9 q-8 -9 -8 -24 q0 -4 0 -15 q0 -11 1 -18 q5 -11 13 -226 q4 -111 -9 -174 q-8 -43 -23 -70 q-22 -36 -64 -70 q-43 -33 -104 -50 q-63 -20 -146 -20 q-95 0 -162 27 q-68 26 -102 69 q-35 43 -48 112 q-9 45 -9 135 l0 191 q0 107 -9 121 q-15 21 -84 22 l0 1 ZM878 27 l0 37 q0 8 -6 13 q-5 5 -13 5 l-841 0 q-8 0 -13 -5 q-5 -5 -5 -13 l0 -37 q0 -8 5 -13 q5 -5 13 -5 l841 0 q8 0 13 5 q6 5 6 13 Z" /><glyph glyph-name="" unicode="&#xe812;" d="M293 174 l0 109 q0 8 -5 13 q-5 6 -14 6 l-183 0 q-7 0 -13 -6 q-6 -5 -5 -13 l0 -109 q0 -9 5 -14 q5 -5 13 -5 l183 0 q9 0 14 5 q5 5 5 14 ZM293 393 l0 110 q0 7 -5 13 q-5 5 -14 5 l-183 0 q-7 0 -13 -5 q-6 -6 -5 -13 l0 -110 q0 -7 5 -13 q5 -5 13 -5 l183 0 q9 0 14 5 q5 6 5 13 ZM585 174 l0 109 q0 8 -5 13 q-6 6 -13 6 l-183 0 q-8 0 -13 -6 q-5 -5 -5 -13 l0 -109 q0 -9 5 -14 q5 -5 13 -5 l183 0 q7 0 13 5 q5 5 5 14 ZM293 613 l0 109 q0 9 -5 14 q-5 5 -14 5 l-183 0 q-7 0 -13 -5 q-6 -5 -5 -14 l0 -109 q0 -8 5 -13 q5 -6 13 -6 l183 0 q9 0 14 6 q5 5 5 13 ZM585 393 l0 110 q0 7 -5 13 q-6 5 -13 5 l-183 0 q-8 0 -13 -5 q-5 -6 -5 -13 l0 -110 q0 -7 5 -13 q5 -5 13 -5 l183 0 q7 0 13 5 q5 6 5 13 ZM878 174 l0 109 q0 8 -6 13 q-5 6 -13 6 l-182 0 q-8 0 -13 -6 q-6 -5 -6 -13 l0 -109 q0 -9 6 -14 q5 -5 13 -5 l182 0 q8 0 13 5 q6 5 6 14 ZM585 613 l0 109 q0 9 -5 14 q-6 5 -13 5 l-183 0 q-8 0 -13 -5 q-5 -5 -5 -14 l0 -109 q0 -8 5 -13 q5 -6 13 -6 l183 0 q7 0 13 6 q5 5 5 13 ZM878 393 l0 110 q0 7 -6 13 q-5 5 -13 5 l-182 0 q-8 0 -13 -5 q-6 -6 -6 -13 l0 -110 q0 -7 6 -13 q5 -5 13 -5 l182 0 q8 0 13 5 q6 6 6 13 ZM878 613 l0 109 q0 9 -6 14 q-5 5 -13 5 l-182 0 q-8 0 -13 -5 q-6 -5 -6 -14 l0 -109 q0 -8 6 -13 q5 -6 13 -6 l182 0 q8 0 13 6 q6 5 6 13 ZM951 795 l0 -621 q0 -38 -27 -65 q-28 -27 -65 -27 l-768 0 q-37 0 -64 27 q-28 27 -27 65 l0 621 q0 38 27 65 q26 26 64 27 l768 0 q38 0 65 -27 q26 -28 27 -65 l0 0 Z" /><glyph glyph-name="" unicode="&#xe813;" d="M512 155 l193 220 l-440 0 l-192 -220 l439 0 l0 0 ZM1091 771 q9 -20 6 -41 q-3 -22 -18 -37 l-512 -586 q-22 -25 -55 -25 l-439 0 q-22 0 -39 12 q-18 11 -28 31 q-8 20 -5 41 q3 22 17 37 l512 586 q22 25 55 25 l439 0 q22 0 40 -12 q18 -11 27 -31 l0 0 Z" /><glyph glyph-name="" unicode="&#xe814;" d="M996 155 q20 0 25 -10 q5 -10 -6 -26 l-73 -92 q-11 -15 -28 -15 q-16 0 -27 15 l-73 92 q-11 16 -6 26 q5 10 23 10 l47 0 l0 586 l-47 0 q-18 0 -23 10 q-5 10 6 26 l73 92 q11 15 27 15 q17 0 28 -15 l73 -92 q11 -16 6 -26 q-5 -10 -25 -10 l-45 0 l0 -586 l45 0 ZM46 886 l31 -15 q7 -3 121 -3 q25 0 75 1 q51 1 75 1 q22 0 62 0 q40 0 61 0 l168 0 q3 0 12 0 q9 0 12 0 q2 0 9 1 q7 1 10 5 q3 4 8 10 l25 1 q2 0 7 -1 q5 -1 8 0 q1 -63 1 -191 q0 -46 -2 -63 q-22 -8 -39 -10 q-14 25 -32 73 q-1 5 -6 27 q-5 23 -8 42 q-3 20 -4 21 q-3 4 -7 7 q-4 3 -8 3 q-4 0 -9 1 q-4 1 -10 1 q-6 0 -9 -1 q-9 0 -38 1 q-29 1 -43 0 q-14 -1 -36 -1 q-21 0 -41 -4 q-5 -46 -4 -77 q0 -54 1 -222 q1 -168 1 -260 q0 -9 -1 -41 q-1 -32 0 -52 q1 -21 7 -39 q23 -12 71 -25 q48 -12 69 -21 q2 -23 2 -29 q0 -8 -1 -16 l-20 -1 q-44 -1 -125 5 q-81 6 -117 5 q-29 0 -88 -5 q-58 -5 -86 -5 q-2 29 -2 29 l0 6 q10 15 35 24 q26 9 57 18 q30 8 45 15 q10 23 10 218 q0 58 -1 173 q-1 115 -2 174 l0 67 q0 1 0 8 q0 7 1 14 q1 7 -1 16 q-2 8 -2 13 q0 5 -3 8 q-6 7 -92 7 q-19 0 -54 -7 q-35 -7 -45 -15 q-11 -7 -19 -41 q-8 -34 -19 -64 q-10 -29 -24 -30 q-24 15 -32 25 l0 218 l46 1 Z" /><glyph glyph-name="" unicode="&#xe815;" d="M923 960 q40 0 70 -27 q31 -26 30 -66 q0 -36 -26 -86 q-189 -360 -266 -430 q-55 -53 -124 -53 q-72 0 -124 54 q-51 53 -52 125 q0 73 53 122 l365 330 q34 31 74 31 l0 0 ZM403 369 q23 -43 61 -75 q38 -31 86 -43 l1 -41 q2 -121 -74 -197 q-76 -76 -199 -77 q-70 0 -124 27 q-55 26 -88 72 q-34 46 -50 105 q-15 58 -16 126 q4 -3 24 -18 q19 -14 35 -25 q17 -12 33 -21 q17 -9 27 -9 q23 0 32 21 q14 37 32 64 q19 27 40 43 q22 16 50 28 q29 11 59 14 q29 3 71 6 l0 0 Z" /><glyph glyph-name="" unicode="&#xe816;" d="M208 82 l51 53 l-134 134 l-52 -52 l0 -62 l73 0 l0 -73 l62 0 ZM506 613 q0 12 -12 12 q-6 0 -10 -4 l-310 -309 q-4 -4 -4 -10 q0 -13 13 -13 q5 0 10 4 l310 310 q3 4 3 10 ZM475 722 l238 -237 l-475 -476 l-238 0 l0 238 l475 475 ZM865 667 q0 -30 -20 -51 l-95 -95 l-238 238 l95 95 q21 21 51 21 q30 0 53 -21 l134 -135 q20 -22 20 -52 l0 0 Z" /><glyph glyph-name="" unicode="&#xe817;" d="M805 539 l0 -109 q0 -23 -17 -39 q-16 -17 -38 -16 l-695 0 q-23 0 -39 16 q-15 15 -16 39 l0 109 q0 24 16 39 q17 15 39 16 l695 0 q22 0 38 -16 q17 -16 17 -39 Z" /><glyph glyph-name="" unicode="&#xe818;" d="M366 631 q0 -46 -32 -78 q-32 -31 -78 -32 q-46 -1 -78 32 q-32 34 -32 78 q0 44 32 77 q32 33 78 33 q46 0 78 -33 q32 -33 32 -77 ZM951 411 l0 -256 l-805 0 l0 110 l183 183 l92 -91 l292 292 l238 -238 ZM1006 814 l-915 0 q-7 0 -12 -6 q-5 -5 -6 -13 l0 -694 q0 -8 6 -13 q6 -6 12 -6 l915 0 q7 0 13 6 q6 5 5 13 l0 694 q0 7 -5 13 q-5 7 -13 6 ZM1097 795 l0 -694 q0 -38 -27 -65 q-27 -26 -64 -27 l-915 0 q-37 0 -64 27 q-28 28 -27 65 l0 694 q0 38 27 65 q26 26 64 27 l915 0 q37 0 64 -27 q27 -28 27 -65 l0 0 Z" /><glyph glyph-name="" unicode="&#xe81a;" d="M878 814 l0 -256 q0 -15 -11 -26 q-10 -11 -26 -11 l-256 0 q-24 0 -33 23 q-10 23 7 39 l79 79 q-84 79 -199 79 q-59 0 -113 -24 q-55 -23 -94 -62 q-38 -39 -63 -93 q-25 -55 -23 -114 q2 -59 23 -114 q20 -54 63 -93 q43 -39 94 -62 q50 -24 113 -24 q68 0 128 30 q61 30 103 84 q4 6 13 7 q8 0 14 -5 l78 -79 q5 -4 6 -11 q1 -7 -5 -14 q-61 -75 -150 -116 q-89 -41 -187 -42 q-89 0 -171 35 q-82 34 -139 94 q-57 59 -94 140 q-37 81 -35 170 q2 89 35 170 q33 81 94 140 q61 60 139 94 q78 35 171 35 q84 0 162 -31 q78 -32 140 -91 l74 74 q16 19 40 8 q23 -9 23 -33 l0 0 Z" /><glyph glyph-name="" unicode="&#xe81b;" d="M878 448 q0 -89 -35 -170 q-35 -81 -93 -140 q-59 -60 -141 -94 q-82 -35 -170 -35 q-98 0 -187 42 q-89 42 -151 116 q-4 7 -4 14 q0 7 5 11 l78 79 q6 5 15 5 q9 -1 13 -7 q42 -54 102 -84 q61 -30 129 -30 q60 0 113 24 q53 23 94 62 q41 39 63 93 q21 55 22 114 q1 59 -22 114 q-24 54 -63 93 q-39 39 -94 62 q-55 24 -113 24 q-56 0 -107 -21 q-51 -20 -92 -58 l78 -79 q18 -16 9 -39 q-11 -23 -34 -23 l-256 0 q-15 0 -26 11 q-10 11 -11 26 l0 256 q0 24 23 33 q22 11 39 -8 l74 -74 q62 59 140 91 q79 31 163 31 q89 0 170 -35 q81 -34 141 -94 q59 -59 93 -140 q34 -81 35 -170 l0 0 Z" /><glyph glyph-name="" unicode="&#xe901;" d="M512 960 q-106 0 -199.5 -40 q-93.5 -40 -163 -109.5 q-69.5 -69.5 -109.5 -163 q-40 -93.5 -40 -199.5 q0 -106 40 -199.5 q40 -93.5 109.5 -163 q69.5 -69.5 163 -109.5 q93.5 -40 199.5 -40 q106 0 199.5 40 q93.5 40 163 109.5 q69.5 69.5 109.5 163 q40 93.5 40 199.5 q0 106 -40 199.5 q-40 93.5 -109.5 163 q-69.5 69.5 -163 109.5 q-93.5 40 -199.5 40 ZM512 32 q-86 0 -162 32.5 q-76 32.5 -132.5 89 q-56.5 56.5 -89 132.5 q-32.5 76 -32.5 162 q0 86 32.5 162 q32.5 76 89 132.5 q56.5 56.5 132.5 89 q76 32.5 162 32.5 q86 0 162 -32.5 q76 -32.5 132.5 -89 q56.5 -56.5 89 -132.5 q32.5 -76 32.5 -162 q0 -86 -32.5 -162 q-32.5 -76 -89 -132.5 q-56.5 -56.5 -132.5 -89 q-76 -32.5 -162 -32.5 ZM672 704 l-160 -160 l-160 160 l-96 -96 l160 -160 l-160 -160 l96 -96 l160 160 l160 -160 l96 96 l-160 160 l160 160 l-96 96 Z" /><glyph glyph-name="" unicode="&#xe911;" d="M960 960 l64 0 l0 -736 q0 -33 -17.5 -62 q-17.5 -29 -48 -51 q-30.5 -22 -71.5 -34.5 q-41 -12.5 -87 -12.5 q-46 0 -87 12.5 q-41 12.5 -71.5 34.5 q-30.5 22 -48 51 q-17.5 29 -17.5 62 q0 33 17.5 62 q17.5 29 48 51 q30.5 22 71.5 34.5 q41 12.5 87 12.5 q47 0 88.5 -13 q41.5 -13 71.5 -35 l0 368 l-512 -114 l0 -494 q0 -33 -17.5 -62 q-17.5 -29 -48 -51 q-30.5 -22 -71.5 -34.5 q-41 -12.5 -87 -12.5 q-46 0 -87 12.5 q-41 12.5 -71.5 34.5 q-30.5 22 -48 51 q-17.5 29 -17.5 62 q0 33 17.5 62 q17.5 29 48 51 q30.5 22 71.5 34.5 q41 12.5 87 12.5 q47 0 88.5 -13 q41.5 -13 71.5 -35 l0 624 l576 128 Z" /><glyph glyph-name="" unicode="&#xe912;" d="M981 800 q-54 8 -110.5 14 q-56.5 6 -115.5 10 q-59 4 -119.5 6 q-60.5 2 -123.5 2 q-63 0 -123.5 -2 q-60.5 -2 -119.5 -6 q-59 -4 -115.5 -10 q-56.5 -6 -110.5 -14 q-11 -41 -18.5 -83 q-7.5 -42 -13 -86.5 q-5.5 -44.5 -8.5 -90 q-3 -45.5 -3 -92.5 q0 -47 3 -92.5 q3 -45.5 8.5 -90 q5.5 -44.5 13 -86.5 q7.5 -42 18.5 -83 q54 -8 110.5 -14 q56.5 -6 115.5 -10 q59 -4 119.5 -6 q60.5 -2 123.5 -2 q63 0 123.5 2 q60.5 2 119.5 6 q59 4 115.5 10 q56.5 6 110.5 14 q11 41 18.5 83 q7.5 42 13 86.5 q5.5 44.5 8.5 90 q3 45.5 3 92.5 q0 47 -3 92.5 q-3 45.5 -8.5 90 q-5.5 44.5 -13 86.5 q-7.5 42 -18.5 83 l0 0 ZM384 256 l0 384 l320 -192 l-320 -192 l0 0 Z" /><glyph glyph-name="" unicode="&#xe914;" d="M384 672 q0 66 47 113 q47 47 113 47 q66 0 113 -47 q47 -47 47 -113 q0 -66 -47 -113 q-47 -47 -113 -47 q-66 0 -113 47 q-47 47 -47 113 ZM0 672 q0 66 47 113 q47 47 113 47 q66 0 113 -47 q47 -47 47 -113 q0 -66 -47 -113 q-47 -47 -113 -47 q-66 0 -113 47 q-47 47 -47 113 ZM768 352 l0 96 q0 26 -19 45 q-19 19 -45 19 l-640 0 q-26 0 -45 -19 q-19 -19 -19 -45 l0 -320 q0 -26 19 -45 q19 -19 45 -19 l640 0 q26 0 45 19 q19 19 19 45 l0 96 l256 -160 l0 448 l-256 -160 ZM640 192 l-512 0 l0 192 l512 0 l0 -192 Z" /><glyph glyph-name="" unicode="&#xe92b;" d="M918 731 q-17 23 -39.5 48.5 q-22.5 25.5 -47.5 51.5 q-26 25 -51.5 47.5 q-25.5 22.5 -48.5 39.5 q-39 28 -59.5 35 q-20.5 7 -31.5 7 l-496 0 q-33 0 -56.5 -23.5 q-23.5 -23.5 -23.5 -56.5 l0 -864 q0 -33 23.5 -56.5 q23.5 -23.5 56.5 -23.5 l736 0 q33 0 56.5 23.5 q23.5 23.5 23.5 56.5 l0 624 q0 11 -7 31.5 q-7 20.5 -35 59.5 l0 0 l0 0 l0 0 ZM785 785 q23 -23 41.5 -43.5 q18.5 -20.5 31.5 -37.5 l-154 0 l0 154 q17 -13 37.5 -31.5 q20.5 -18.5 43.5 -41.5 l0 0 l0 0 ZM896 16 q0 -7 -4.5 -11.5 q-4.5 -4.5 -11.5 -4.5 l-736 0 q-7 0 -11.5 4.5 q-4.5 4.5 -4.5 11.5 l0 864 q0 7 4.5 11.5 q4.5 4.5 11.5 4.5 q0 0 77.5 0 q77.5 0 170.5 0 q93 0 170.5 0 q77.5 0 77.5 0 l0 -224 q0 -13 9.5 -22.5 q9.5 -9.5 22.5 -9.5 l224 0 l0 -624 ZM256 896 l128 0 l0 -64 l-128 0 l0 64 ZM384 832 l128 0 l0 -64 l-128 0 l0 64 ZM256 768 l128 0 l0 -64 l-128 0 l0 64 ZM384 704 l128 0 l0 -64 l-128 0 l0 64 ZM256 640 l128 0 l0 -64 l-128 0 l0 64 ZM384 576 l128 0 l0 -64 l-128 0 l0 64 ZM256 512 l128 0 l0 -64 l-128 0 l0 64 ZM384 448 l128 0 l0 -64 l-128 0 l0 64 ZM256 112 q0 -20 14 -34 q14 -14 34 -14 l160 0 q20 0 34 14 q14 14 14 34 l0 160 q0 20 -14 34 q-14 14 -34 14 l-80 0 l0 64 l-128 0 l0 -272 ZM448 192 l0 -64 l-128 0 l0 64 l128 0 Z" /><glyph glyph-name="" unicode="&#xe947;" d="M512 960 q-66 0 -124.5 -25 q-58.5 -25 -102 -68.5 q-43.5 -43.5 -68.5 -102 q-25 -58.5 -25 -124.5 q0 -120 50 -245 q50 -125 110 -227 q60 -102 110 -167 q50 -65 50 -65 q0 0 50 65 q50 65 110 167 q60 102 110 227 q50 125 50 245 q0 66 -25 124.5 q-25 58.5 -68.5 102 q-43.5 43.5 -102 68.5 q-58.5 25 -124.5 25 ZM512 448 q-80 0 -136 56 q-56 56 -56 136 q0 80 56 136 q56 56 136 56 q80 0 136 -56 q56 -56 56 -136 q0 -80 -56 -136 q-56 -56 -136 -56 Z" /><glyph glyph-name="" unicode="&#xe960;" d="M512 384 l256 256 l-192 0 l0 256 l-128 0 l0 -256 l-192 0 l256 -256 ZM745 489 l-72 -72 l260 -97 l-421 -157 l-421 157 l260 97 l-72 72 l-279 -105 l0 -256 l512 -192 l512 192 l0 256 l-279 105 Z" /><glyph glyph-name="" unicode="&#xe961;" d="M448 384 l128 0 l0 256 l192 0 l-256 256 l-256 -256 l192 0 l0 -256 ZM640 528 l0 -99 l293 -109 l-421 -157 l-421 157 l293 109 l0 99 l-384 -144 l0 -256 l512 -192 l512 192 l0 256 l-384 144 Z" /><glyph glyph-name="" unicode="&#xe977;" d="M225 512 q46 0 87 -17.5 q41 -17.5 71.5 -48 q30.5 -30.5 48 -71.5 q17.5 -41 17.5 -87 q0 -46 -17.5 -87 q-17.5 -41 -48 -71.5 q-30.5 -30.5 -71.5 -48 q-41 -17.5 -87 -17.5 q-46 0 -87 17.5 q-41 17.5 -71.5 48 q-30.5 30.5 -48 71.5 q-17.5 41 -17.5 87 l-1 32 q0 93 35 174.5 q35 81.5 96 142.5 q61 61 142.5 96 q81.5 35 174.5 35 l0 -128 q-64 0 -122.5 -24 q-58.5 -24 -103.5 -70 q-9 -8 -17 -17.5 q-8 -9.5 -15 -19.5 q8 2 17 2.5 q9 0.5 18 0.5 ZM801 512 q46 0 87 -17.5 q41 -17.5 71.5 -48 q30.5 -30.5 48 -71.5 q17.5 -41 17.5 -87 q0 -46 -17.5 -87 q-17.5 -41 -48 -71.5 q-30.5 -30.5 -71.5 -48 q-41 -17.5 -87 -17.5 q-46 0 -87 17.5 q-41 17.5 -71.5 48 q-30.5 30.5 -48 71.5 q-17.5 41 -17.5 87 l-1 32 q0 93 35 174.5 q35 81.5 96 142.5 q61 61 142.5 96 q81.5 35 174.5 35 l0 -128 q-64 0 -122.5 -24 q-58.5 -24 -103.5 -70 q-9 -8 -17 -17.5 q-8 -9.5 -15 -19.5 q8 2 17 2.5 q9 0.5 18 0.5 Z" /><glyph glyph-name="" unicode="&#xe98b;" d="M1024 960 l0 -416 l-160 160 l-192 -192 l-96 96 l192 192 l-160 160 l416 0 ZM448 288 l-192 -192 l160 -160 l-416 0 l0 416 l160 -160 l192 192 l96 -96 Z" /><glyph glyph-name="" unicode="&#xe98c;" d="M448 384 l0 -416 l-160 160 l-192 -192 l-96 96 l192 192 l-160 160 l416 0 ZM1024 864 l-192 -192 l160 -160 l-416 0 l0 416 l160 -160 l192 192 l96 -96 Z" /><glyph glyph-name="" unicode="&#xe9ce;" d="M512 768 q-84 0 -161 -23.5 q-77 -23.5 -143 -65.5 q-66 -42 -119 -101 q-53 -59 -89 -130 q36 -71 89 -130 q53 -59 119 -101 q66 -42 143 -65.5 q77 -23.5 161 -23.5 q84 0 161 23.5 q77 23.5 143 65.5 q66 42 119 101 q53 59 89 130 q-36 71 -89 130 q-53 59 -119 101 q-66 42 -143 65.5 q-77 23.5 -161 23.5 ZM764 598 q46 -28 83.5 -66.5 q37.5 -38.5 66.5 -83.5 q-29 -45 -66.5 -83.5 q-37.5 -38.5 -83.5 -66.5 q-56 -36 -120.5 -55 q-64.5 -19 -131.5 -19 q-67 0 -131.5 19 q-64.5 19 -120.5 55 q-46 28 -83.5 66.5 q-37.5 38.5 -66.5 83.5 q29 45 66.5 83.5 q37.5 38.5 83.5 66.5 q2 2 5 4 q3 2 6 4 q-7 -21 -11 -43 q-4 -22 -4 -45 q0 -53 20 -99.5 q20 -46.5 55 -81.5 q35 -35 81.5 -55 q46.5 -20 99.5 -20 q53 0 99.5 20 q46.5 20 81.5 55 q35 35 55 81.5 q20 46.5 20 99.5 q0 23 -4 45 q-4 22 -11 43 q3 -2 6 -4 q3 -2 5 -4 l0 0 l0 0 ZM512 544 q0 -40 -28 -68 q-28 -28 -68 -28 q-40 0 -68 28 q-28 28 -28 68 q0 40 28 68 q28 28 68 28 q40 0 68 -28 q28 -28 28 -68 Z" /><glyph glyph-name="" unicode="&#xe9d1;" d="M946 946 q-14 14 -34 14 q-20 0 -34 -14 l-202 -202 q-39 12 -80 18 q-41 6 -84 6 q-84 0 -161 -23.5 q-77 -23.5 -143 -65.5 q-66 -42 -119 -101 q-53 -59 -89 -130 q31 -62 75 -114.5 q44 -52.5 98 -92.5 l-159 -159 q-14 -14 -14 -34 q0 -20 14 -34 q7 -7 16 -10.5 q9 -3.5 18 -3.5 q9 0 18 3.5 q9 3.5 16 10.5 l864 864 q14 14 14 34 q0 20 -14 34 ZM416 640 q32 0 56.5 -18.5 q24.5 -18.5 34.5 -46.5 l-122 -122 q-28 10 -46.5 34.5 q-18.5 24.5 -18.5 56.5 q0 40 28 68 q28 28 68 28 ZM110 448 q29 45 66.5 83.5 q37.5 38.5 83.5 66.5 q2 2 5 4 q3 2 6 4 q-7 -21 -11 -43 q-4 -22 -4 -45 q0 -41 12.5 -78.5 q12.5 -37.5 34.5 -68.5 l-61 -61 q-40 27 -73 62 q-33 35 -59 76 l0 0 ZM768 518 q0 20 -3 39.5 q-3 19.5 -9 38.5 l-322 -322 q19 -6 38.5 -9 q19.5 -3 39.5 -3 q53 0 99.5 20 q46.5 20 81.5 55 q35 35 55 81.5 q20 46.5 20 99.5 ZM830 670 l-69 -69 q1 -1 2 -1.5 q1 -0.5 1 -1.5 q46 -28 83.5 -66.5 q37.5 -38.5 66.5 -83.5 q-29 -45 -66.5 -83.5 q-37.5 -38.5 -83.5 -66.5 q-56 -36 -120.5 -55 q-64.5 -19 -131.5 -19 q-29 0 -57.5 3.5 q-28.5 3.5 -56.5 10.5 l-77 -77 q45 -16 93 -24.5 q48 -8.5 98 -8.5 q84 0 161 23.5 q77 23.5 143 65.5 q66 42 119 101 q53 59 89 130 q-34 67 -83.5 123.5 q-49.5 56.5 -110.5 98.5 l0 0 Z" /><glyph glyph-name="" unicode="&#xe9df;" d="M512 -64 q106 0 199.5 40 q93.5 40 163 109.5 q69.5 69.5 109.5 163 q40 93.5 40 199.5 q0 106 -40 199.5 q-40 93.5 -109.5 163 q-69.5 69.5 -163 109.5 q-93.5 40 -199.5 40 q-106 0 -199.5 -40 q-93.5 -40 -163 -109.5 q-69.5 -69.5 -109.5 -163 q-40 -93.5 -40 -199.5 q0 -106 40 -199.5 q40 -93.5 109.5 -163 q69.5 -69.5 163 -109.5 q93.5 -40 199.5 -40 ZM512 864 q86 0 162 -32.5 q76 -32.5 132.5 -89 q56.5 -56.5 89 -132.5 q32.5 -76 32.5 -162 q0 -86 -32.5 -162 q-32.5 -76 -89 -132.5 q-56.5 -56.5 -132.5 -89 q-76 -32.5 -162 -32.5 q-86 0 -162 32.5 q-76 32.5 -132.5 89 q-56.5 56.5 -89 132.5 q-32.5 76 -32.5 162 q0 86 32.5 162 q32.5 76 89 132.5 q56.5 56.5 132.5 89 q76 32.5 162 32.5 ZM512 361 q43 0 85.5 6 q42.5 6 83 16.5 q40.5 10.5 78.5 26.5 q38 16 73 36 q-5 -67 -32.5 -125 q-27.5 -58 -70.5 -101 q-43 -43 -98.5 -67.5 q-55.5 -24.5 -118.5 -24.5 q-63 0 -118.5 24.5 q-55.5 24.5 -98.5 67.5 q-43 43 -70.5 101 q-27.5 58 -32.5 125 q35 -20 73 -36 q38 -16 78.5 -26.5 q40.5 -10.5 83 -16.5 q42.5 -6 85.5 -6 ZM256 608 q0 40 18.5 68 q18.5 28 45.5 28 q27 0 45.5 -28 q18.5 -28 18.5 -68 q0 -40 -18.5 -68 q-18.5 -28 -45.5 -28 q-27 0 -45.5 28 q-18.5 28 -18.5 68 ZM640 608 q0 40 18.5 68 q18.5 28 45.5 28 q27 0 45.5 -28 q18.5 -28 18.5 -68 q0 -40 -18.5 -68 q-18.5 -28 -45.5 -28 q-27 0 -45.5 28 q-18.5 28 -18.5 68 Z" /><glyph glyph-name="" unicode="&#xea65;" d="M1024 448 l0 -64 l-235 0 q21 -29 32 -61.5 q11 -32.5 11 -66.5 q0 -53 -26.5 -102 q-26.5 -49 -74.5 -85 q-44 -33 -100.5 -51 q-56.5 -18 -118.5 -18 q-62 0 -118.5 18 q-56.5 18 -100.5 51 q-48 36 -74.5 85 q-26.5 49 -26.5 102 l128 0 q0 -52 57 -90 q57 -38 135 -38 q78 0 135 38 q57 38 57 90 q0 52 -57 90 q-57 38 -135 38 l-512 0 l0 64 l300 0 q-2 1 -4 2.5 q-2 1.5 -3 2.5 q-48 36 -74.5 85 q-26.5 49 -26.5 102 q0 53 26.5 102 q26.5 49 74.5 85 q44 33 100.5 51 q56.5 18 118.5 18 q62 0 118.5 -18 q56.5 -18 100.5 -51 q48 -36 74.5 -85 q26.5 -49 26.5 -102 l-128 0 q0 52 -57 90 q-57 38 -135 38 q-78 0 -135 -38 q-57 -38 -57 -90 q0 -52 57 -90 q57 -38 135 -38 q59 0 114 -16.5 q55 -16.5 98 -47.5 l300 0 Z" /><glyph glyph-name="" unicode="&#xf00e;" d="M585 494 l0 -37 q0 -7 -5 -13 q-6 -5 -13 -5 l-128 0 l0 -128 q0 -8 -6 -13 q-5 -5 -12 -5 l-37 0 q-7 0 -13 5 q-5 5 -5 13 l0 128 l-128 0 q-8 0 -13 5 q-6 6 -6 13 l0 37 q0 7 6 13 q5 5 13 5 l128 0 l0 128 q0 7 5 13 q6 5 13 5 l37 0 q7 0 12 -5 q6 -6 6 -13 l0 -128 l128 0 q7 0 13 -5 q5 -6 5 -13 l0 0 ZM658 475 q0 106 -75 181 q-75 75 -181 75 q-105 0 -181 -75 q-75 -75 -75 -181 q0 -105 75 -180 q76 -76 181 -76 q106 0 181 76 q75 75 75 180 ZM951 0 q0 -30 -22 -52 q-21 -21 -51 -21 q-31 0 -52 22 l-196 195 q-102 -71 -228 -71 q-81 0 -156 32 q-75 32 -129 86 q-54 54 -85 128 q-32 75 -32 156 q0 82 32 157 q31 74 85 128 q54 54 129 86 q75 32 156 32 q82 0 157 -32 q74 -32 128 -86 q54 -54 86 -128 q32 -75 32 -157 q0 -125 -71 -228 l196 -196 q21 -21 21 -51 l0 0 Z" /><glyph glyph-name="" unicode="&#xf010;" d="M585 494 l0 -37 q0 -7 -5 -13 q-6 -5 -13 -5 l-329 0 q-8 0 -13 5 q-6 6 -6 13 l0 37 q0 7 6 13 q5 5 13 5 l329 0 q7 0 13 -5 q5 -6 5 -13 l0 0 ZM658 475 q0 106 -75 181 q-75 75 -181 75 q-105 0 -181 -75 q-75 -75 -75 -181 q0 -105 75 -180 q76 -76 181 -76 q106 0 181 76 q75 75 75 180 ZM951 0 q0 -30 -22 -52 q-21 -21 -51 -21 q-31 0 -52 22 l-196 195 q-102 -71 -228 -71 q-81 0 -156 32 q-75 32 -129 86 q-54 54 -85 128 q-32 75 -32 156 q0 82 32 157 q31 74 85 128 q54 54 129 86 q75 32 156 32 q82 0 157 -32 q74 -32 128 -86 q54 -54 86 -128 q32 -75 32 -157 q0 -125 -71 -228 l196 -196 q21 -21 21 -51 l0 0 Z" /><glyph glyph-name="" unicode="&#xf014;" d="M293 530 l0 -329 q0 -8 -6 -13 q-5 -5 -13 -5 l-36 0 q-8 0 -13 5 q-6 5 -6 13 l0 329 q0 8 6 13 q5 6 13 6 l36 0 q8 0 13 -6 q6 -5 6 -13 l0 0 ZM439 530 l0 -329 q0 -8 -5 -13 q-5 -5 -13 -5 l-37 0 q-8 0 -13 5 q-5 5 -5 13 l0 329 q0 8 5 13 q5 6 13 6 l37 0 q8 0 13 -6 q5 -5 5 -13 ZM585 530 l0 -329 q0 -8 -5 -13 q-5 -5 -13 -5 l-37 0 q-8 0 -13 5 q-5 5 -5 13 l0 329 q0 8 5 13 q5 6 13 6 l37 0 q8 0 13 -6 q5 -5 5 -13 ZM658 117 l0 541 l-512 0 l0 -541 q0 -13 4 -24 q4 -10 9 -15 q4 -5 6 -5 l475 0 q2 0 6 5 q4 5 8 15 q4 11 4 24 l0 0 ZM274 731 l256 0 l-27 67 q-4 5 -10 7 l-181 0 q-6 -2 -10 -7 l-28 -67 ZM805 713 l0 -36 q0 -8 -6 -14 q-5 -5 -13 -5 l-55 0 l0 -541 q0 -48 -26 -82 q-27 -35 -65 -35 l-475 0 q-38 0 -65 33 q-27 34 -27 81 l0 544 l-55 0 q-8 0 -13 5 q-5 6 -5 14 l0 36 q0 8 5 13 q5 5 13 5 l177 0 l40 96 q8 21 31 36 q22 15 45 15 l183 0 q23 0 45 -15 q22 -15 31 -36 l40 -96 l176 0 q8 0 13 -5 q6 -5 6 -13 l0 0 Z" /><glyph glyph-name="" unicode="&#xf039;" d="M1024 183 l0 -73 q0 -15 -11 -26 q-11 -11 -26 -11 l-950 0 q-15 0 -26 11 q-11 11 -11 26 l0 73 q0 15 11 26 q11 10 26 10 l950 0 q15 0 26 -10 q11 -11 11 -26 ZM1024 402 l0 -73 q0 -15 -11 -26 q-11 -10 -26 -10 l-950 0 q-15 0 -26 10 q-11 11 -11 26 l0 73 q0 15 11 26 q11 11 26 11 l950 0 q15 0 26 -11 q11 -11 11 -26 l0 0 ZM1024 622 l0 -73 q0 -15 -11 -26 q-11 -11 -26 -11 l-950 0 q-15 0 -26 11 q-11 11 -11 26 l0 73 q0 15 11 25 q11 11 26 11 l950 0 q15 0 26 -11 q11 -10 11 -25 ZM1024 841 l0 -73 q0 -15 -11 -26 q-11 -11 -26 -11 l-950 0 q-15 0 -26 11 q-11 11 -11 26 l0 73 q0 15 11 26 q11 11 26 11 l950 0 q15 0 26 -11 q11 -11 11 -26 Z" /><glyph glyph-name="" unicode="&#xf07d;" d="M402 768 q0 -15 -11 -26 q-10 -11 -25 -11 l-73 0 l0 -585 l73 0 q15 0 25 -11 q11 -10 11 -25 q0 -15 -11 -26 l-146 -146 q-11 -11 -26 -11 q-14 0 -25 11 l-147 146 q-10 11 -10 26 q0 15 10 25 q11 11 26 11 l73 0 l0 585 l-73 0 q-15 0 -26 11 q-10 11 -10 26 q0 15 10 26 l147 146 q11 11 25 11 q15 0 26 -11 l146 -146 q11 -11 11 -26 l0 0 Z" /></font>
</defs>
</svg>
