<?xml version="1.0" standalone="no"?><!DOCTYPE svg PUBLIC "-//W3C//DTD SVG 1.1//EN" "http://www.w3.org/Graphics/SVG/1.1/DTD/svg11.dtd" ><svg xmlns="http://www.w3.org/2000/svg"><metadata></metadata><defs><font id="iconfont" horiz-adv-x="1213"><font-face font-family="iconfont" font-weight="400" font-stretch="normal" units-per-em="1024" panose-1="2 0 5 3 0 0 0 0 0 0" ascent="896" descent="-128" x-height="0" bbox="-5 -120 1197 888" underline-thickness="0" underline-position="10" unicode-range="U+e601-e999" /><missing-glyph horiz-adv-x="1024" d="M685 507 l-50 50 l-123 -123 l-125 125 l-50 -50 l125 -125 l-123 -123 l50 -50 l123 123 l125 -125 l50 50 l-125 125 l123 123 ZM512 864 q-204 -5 -339.5 -140.5 q-135.5 -135.5 -140.5 -339.5 q5 -204 140.5 -339.5 q135.5 -135.5 339.5 -140.5 q204 5 339.5 140.5 q135.5 135.5 140.5 339.5 q-5 204 -140.5 339.5 q-135.5 135.5 -339.5 140.5 ZM512 -52 q-185 4 -308.5 127.5 q-123.5 123.5 -127.5 308.5 q4 185 127.5 308.5 q123.5 123.5 308.5 127.5 q185 -4 308.5 -127.5 q123.5 -123.5 127.5 -308.5 q-4 -185 -127.5 -308.5 q-123.5 -123.5 -308.5 -127.5 Z" /><glyph glyph-name="warning" unicode="&#xe634;" d="M948 568 q-36 85 -101.5 150.5 q-65.5 65.5 -150.5 101.5 q-88 37 -184 37 q-96 0 -184 -37 q-85 -36 -150.5 -101.5 q-65.5 -65.5 -101.5 -150.5 q-37 -88 -37 -184.5 q0 -96.5 37 -184.5 q36 -85 101.5 -150.5 q65.5 -65.5 150.5 -101.5 q88 -37 184 -37 q96 0 184 37 q85 36 150.5 101.5 q65.5 65.5 101.5 150.5 q37 88 37 184.5 q0 96.5 -37 184.5 ZM512 -24 q-173 5 -287.5 120 q-114.5 115 -119.5 287 q5 173 119.5 288 q114.5 115 287.5 119 q173 -4 287.5 -119 q114.5 -115 119.5 -288 q-5 -172 -119.5 -287 q-114.5 -115 -287.5 -120 ZM476 663 l72 0 l0 -441 l-72 0 l0 441 ZM476 176 l72 0 l0 -72 l-72 0 l0 72 Z" /><glyph glyph-name="add" unicode="&#xe604;" d="M959 406 l-425 0 l0 425 q-1 19 -17 28 q-16 9 -32 0 q-16 -9 -17 -28 l0 -425 l-403 0 q-14 -1 -23.5 -10 q-9.5 -9 -9.5 -23 q0 -14 9.5 -23 q9.5 -9 23.5 -10 l403 0 l0 -403 q1 -19 17 -28 q16 -9 32 0 q16 9 17 28 l0 403 l425 0 q14 1 23.5 10 q9.5 9 9.5 23 q0 14 -9.5 23 q-9.5 9 -23.5 10 Z" /><glyph glyph-name="close" unicode="&#xe624;" d="M561 383 l383 382 q10 11 10 24.5 q0 13.5 -10.5 24 q-10.5 10.5 -24 10.5 q-13.5 0 -24.5 -10 l-383 -382 l-383 382 q-14 14 -33 8.5 q-19 -5.5 -24.5 -24.5 q-5.5 -19 8.5 -33 l383 -382 l-383 -383 q-10 -11 -10 -24.5 q0 -13.5 10.5 -24 q10.5 -10.5 24 -10.5 q13.5 0 24.5 10 l383 383 l383 -383 q11 -10 24.5 -10 q13.5 0 24 10 q10.5 10 10.5 24.5 q0 14.5 -10 24.5 l-383 383 Z" /><glyph glyph-name="star" unicode="&#xe625;" d="M263 -104 q-50 0 -80 33 q-13 13 -23 40.5 q-10 27.5 -7 71.5 q5 49 17.5 107 q12.5 58 21.5 92 l-73 68 q-44 42 -70 64 q-29 26 -41 57.5 q-12 31.5 -6 62.5 q6 29 26 49.5 q20 20.5 50 30.5 q41 12 113.5 25 q72.5 13 113.5 19 l51 98 q33 61 50.5 92.5 q17.5 31.5 44 48.5 q26.5 17 57.5 17 q31 0 57 -17.5 q26 -17.5 44 -48.5 l100 -190 l106 -17 q68 -11 111 -19 q47 -11 68 -32.5 q21 -21.5 25 -38.5 q10 -32 -4 -66.5 q-14 -34.5 -48 -68.5 q-36 -36 -76 -74 l-64 -61 q8 -33 19.5 -91 q11.5 -58 18.5 -105 q6 -44 -2.5 -71.5 q-8.5 -27.5 -21.5 -41.5 q-28 -31 -73 -33 q-45 -2 -101 27 q-80 42 -160 85 l-74 -43 q-45 -27 -75 -43 q-51 -27 -95 -27 ZM508 802 q-24 0 -41 -30 q-22 -40 -63 -117 l-48 -93 q-3 -6 -6 -8.5 q-3 -2.5 -9 -2.5 l-8 -1 q-43 -7 -119 -20 q-76 -13 -115 -25 q-24 -7 -28 -27 q-3 -13 3.5 -26.5 q6.5 -13.5 20.5 -26.5 q35 -31 93 -85 l66 -64 l7 -5 q5 -5 6 -9 q1 -4 -1 -12 l-2 -8 q-2 -7 -18 -77 q-16 -70 -23 -130 q-4 -42 11 -59 q12 -12 36 -9.5 q24 2.5 55 18.5 q40 21 98 56 l72 41 q7 4 11 4 q4 0 10 -3 l7 -3 l64 -35 q58 -31 113 -60 q22 -11 37.5 -15 q15.5 -4 24.5 -4 q13 1 19 4.5 q6 3.5 7 5.5 q14 17 8 57 q-9 61 -24 132 l-17 79 l-1 7 q-1 8 0.5 12 q1.5 4 5.5 8 l60 57 q50 48 98 95 q22 23 30 39.5 q8 16.5 5 25 q-3 8.5 -14 14.5 q-11 6 -27 10 q-54 10 -138 23 l-99 16 q-6 0 -9 2.5 q-3 2.5 -7 8.5 l-49 92 q-40 76 -63 118 q-16 30 -39 30 Z" /><glyph glyph-name="more" unicode="&#xe633;" d="M175 384 l0 0 ZM108 384 q1 -29 20 -48 q19 -19 47.5 -19 q28.5 0 47.5 19 q19 19 19 48 q0 29 -19 48 q-19 19 -47.5 19 q-28.5 0 -47.5 -19 q-19 -19 -20 -48 ZM525 384 l0 0 ZM458 384 q1 -29 20 -48 q19 -19 47.5 -19 q28.5 0 47.5 19 q19 19 19 48 q0 29 -19 48 q-19 19 -47.5 19 q-28.5 0 -47.5 -19 q-19 -19 -20 -48 ZM849 384 l0 0 ZM781 384 q1 -29 20 -48 q19 -19 47.5 -19 q28.5 0 47.5 19 q19 19 19 48 q0 29 -19 48 q-19 19 -47.5 19 q-28.5 0 -47.5 -19 q-19 -19 -20 -48 Z" /><glyph glyph-name="search" unicode="&#xe626;" d="M982 -40 l-219 222 q48 56 73 124.5 q25 68.5 25 142.5 q-4 177 -121 294 q-117 117 -293 121 q-177 -4 -294 -121 q-117 -117 -121 -294 q4 -176 121 -293 q117 -117 294 -121 q77 0 146 26.5 q69 26.5 124 73.5 l218 -221 q10 -9 23.5 -9 q13.5 0 23 9.5 q9.5 9.5 9.5 22.5 q0 13 -9 23 ZM447 100 q-149 4 -247.5 102.5 q-98.5 98.5 -102.5 246.5 q4 149 102.5 247.5 q98.5 98.5 247.5 102.5 q148 -4 246.5 -102.5 q98.5 -98.5 102.5 -247.5 q-4 -148 -102.5 -246.5 q-98.5 -98.5 -246.5 -102.5 Z" /><glyph glyph-name="share" unicode="&#xe627;" d="M794 646 l-20 0 q-219 -5 -368 -156 q-149 -151 -156 -385 q1 -14 10 -22.5 q9 -8.5 23 -8.5 q14 0 23.5 8 q9.5 8 9.5 22 q6 201 139 336 q133 135 319 140 l20 0 l-130 -126 q-10 -10 -10 -22 q0 -12 10 -21.5 q10 -9.5 23 -9 q13 0.5 23 9.5 l185 186 q10 11 10 25 q0 14 -10 24 l-185 185 q-10 10 -23 10 q-13 0 -23 -10 q-10 -10 -10 -25 q0 -15 10 -25 l130 -135 ZM872 327 q-13 0 -23 -9.5 q-10 -9.5 -10 -22.5 l0 -273 q0 -10 -6 -20 q-6 -10 -15 -11 l-655 0 q-9 1 -15.5 9 q-6.5 8 -6.5 17 l0 653 q1 9 7 14 q6 5 15 5 l273 0 q14 1 23 10 q9 9 9 23 q0 14 -9 23.5 q-9 9.5 -23 9.5 l-273 0 q-37 -1 -61.5 -23.5 q-24.5 -22.5 -25.5 -59.5 l0 -657 q1 -37 25.5 -62.5 q24.5 -25.5 62.5 -26.5 l654 0 q37 1 61.5 29.5 q24.5 28.5 25.5 66.5 l0 273 q0 13 -10 22.5 q-10 9.5 -23 9.5 Z" /><glyph glyph-name="arrow-left" unicode="&#xe602;" d="M757 -33 l-416 416 l416 416 q12 12 13 27 q1 15 -9.5 25.5 q-10.5 10.5 -25.5 9.5 q-15 -1 -27 -13 l-441 -440 q-9 -10 -9 -24 l0 -3 q0 -13 9 -23 l441 -440 q12 -12 27 -13 q15 -1 25.5 9.5 q10.5 10.5 9.5 25.5 q-1 15 -13 27 Z" /><glyph glyph-name="arrow-right" unicode="&#xe603;" d="M271 -33 l416 416 l-416 416 q-12 12 -13 27 q-1 15 9.5 25.5 q10.5 10.5 25.5 9.5 q15 -1 27 -13 l441 -440 q9 -10 9 -24 l0 -3 q0 -13 -9 -23 l-441 -440 q-12 -12 -27 -13 q-15 -1 -25.5 9.5 q-10.5 10.5 -9.5 25.5 q1 15 13 27 Z" /><glyph glyph-name="minus" unicode="&#xe62e;" d="M1024 384 q0 -15 -10 -25 q-10 -10 -24 -10 l-956 0 q-14 0 -24 10 q-10 10 -10 25 q0 15 10 25 q10 10 24 10 l956 0 q14 0 24 -10 q10 -10 10 -25 Z" /><glyph glyph-name="home" unicode="&#xe642;" d="M975 398 l-437 437 l-3 4 q-10 9 -24 9 l-3 0 q-13 0 -23 -9 l-440 -441 q-12 -12 -13 -27 q-1 -15 9.5 -25.5 q10.5 -10.5 25.5 -9.5 q15 1 27 13 l22 22 l0 -361 q1 -39 27 -65.5 q26 -26.5 66 -27.5 l116 0 q40 1 66 27.5 q26 26.5 27 65.5 l0 140 q1 9 7.5 15.5 q6.5 6.5 15.5 6.5 l0 1 l117 0 l0 -1 q9 0 15.5 -6.5 q6.5 -6.5 7.5 -15.5 l0 -140 q1 -39 27.5 -65.5 q26.5 -26.5 65.5 -27.5 l117 0 q39 1 65.5 27.5 q26.5 26.5 27.5 65.5 l0 381 l42 -42 q12 -12 27 -13 q15 -1 25.5 9.5 q10.5 10.5 9.5 25.5 q-1 15 -13 27 ZM814 10 l0 0 q-1 -9 -7.5 -15.5 q-6.5 -6.5 -15.5 -6.5 l0 -1 l-117 0 l0 1 q-9 0 -15.5 6.5 q-6.5 6.5 -7.5 15.5 l0 140 q-1 39 -27.5 65.5 q-26.5 26.5 -65.5 27.5 l-117 0 q-39 -1 -65.5 -27.5 q-26.5 -26.5 -27.5 -65.5 l0 -140 q0 -9 -6.5 -15.5 q-6.5 -6.5 -16.5 -6.5 l0 -1 l-116 0 l0 1 q-10 0 -16.5 6.5 q-6.5 6.5 -6.5 15.5 l-1 430 l325 325 l304 -304 l0 -451 Z" /><glyph glyph-name="star-active" unicode="&#xe630;" d="M509 18 q3 0 8 -1 l4 -2 l64 -28 q58 -25 124 -57 q56 -26 91 -27 q16 1 23 5 q7 4 8 6 q17 20 12 74 l-27 242 l0 5 q0 5 1 8 q1 3 4 6 l3 4 l55 61 q50 55 104 110 q21 22 30.5 41.5 q9.5 19.5 6.5 34.5 q-4 12 -14.5 19 q-10.5 7 -22.5 10 q-60 18 -155 40 l-106 23 l-12 6 q-2 1 -5 4 l-3 4 l-56 90 q-50 81 -80 126 q-29 42 -55.5 42 q-26.5 0 -55.5 -42 q-29 -42 -79 -124 l-57 -92 l-2 -3 q-3 -3 -5 -5 l-12 -6 l-106 -23 q-94 -21 -150 -38 q-13 -4 -25.5 -12 q-12.5 -8 -16 -23 q-3.5 -15 5.5 -34.5 q9 -19.5 29 -39.5 q37 -37 94 -98 l68 -74 q3 -4 4 -6.5 q1 -2.5 1 -8.5 l0 -5 l-10 -90 q-10 -81 -16 -151 q-3 -38 1 -55.5 q4 -17.5 9 -21.5 q2 -3 7.5 -5.5 q5.5 -2.5 17.5 -2.5 q32 0 92 27 l192 84 l5 2 q5 1 7 1 Z" /><glyph glyph-name="camera" unicode="&#xe601;" d="M563 561 q-98 -3 -161.5 -66.5 q-63.5 -63.5 -66.5 -161.5 q3 -97 66.5 -161 q63.5 -64 161.5 -66 q97 2 161 66 q64 64 66 161 q-2 98 -66 161.5 q-64 63.5 -161 66.5 ZM563 182 q-65 1 -107.5 44 q-42.5 43 -44.5 107 q2 65 44.5 107.5 q42.5 42.5 107.5 44.5 q64 -2 107 -44.5 q43 -42.5 44 -107.5 q-1 -64 -44 -107 q-43 -43 -107 -44 ZM992 712 l-91 0 q-4 0 -41 11 q-37 11 -60 37 q-12 16 -25 32 l-26 29 q-7 9 -34 25 q-27 16 -56 18 l-192 0 q-27 -2 -54 -17.5 q-27 -15.5 -35 -22.5 q-12 -16 -25 -32 l-28 -32 q-26 -26 -62 -37 q-36 -11 -39 -11 l-91 0 q-43 -1 -71.5 -29.5 q-28.5 -28.5 -29.5 -71.5 l0 -606 q1 -43 29.5 -71.5 q28.5 -28.5 71.5 -29.5 l859 0 q43 1 71.5 29.5 q28.5 28.5 29.5 71.5 l0 606 q-1 43 -29.5 71.5 q-28.5 28.5 -71.5 29.5 ZM962 -20 l-802 0 q-22 0 -37 15.5 q-15 15.5 -15 38.5 l0 557 q1 23 17 34.5 q16 11.5 35 11.5 l115 0 q27 7 54 23.5 q27 16.5 37 27.5 l46 55 q13 18 35.5 31.5 q22.5 13.5 64.5 13.5 l101 0 q39 -1 60.5 -14.5 q21.5 -13.5 30.5 -25.5 q11 -15 24 -30 l24 -27 q11 -14 38 -30.5 q27 -16.5 55 -23.5 l115 0 q21 0 37.5 -11.5 q16.5 -11.5 17.5 -34.5 l0 -557 q1 -23 -14 -38.5 q-15 -15.5 -39 -15.5 Z" /><glyph glyph-name="pintuan1" unicode="&#xe64e;" d="M1024 -15 q-1 -14 -10 -23 q-9 -9 -22.5 -9 q-13.5 0 -22.5 9 q-9 9 -9 23 q-2 116 -70.5 200 q-68.5 84 -177.5 110 l0 2 q-14 5 -23.5 16.5 q-9.5 11.5 -9.5 28 q0 16.5 11 28.5 q11 12 27 15 q52 23 83 69 q31 46 32 106 q-2 81 -56 135 q-54 54 -136 56 l0 0 q-13 1 -21 10 q-8 9 -8.5 22 q-0.5 13 8 21.5 q8.5 8.5 21.5 10.5 l0 0 l4 -1 q107 -4 178 -75.5 q71 -71.5 74 -178.5 q-1 -70 -34 -126.5 q-33 -56.5 -88 -90.5 q111 -43 179.5 -138 q68.5 -95 70.5 -220 ZM518 343 q111 -43 179.5 -138 q68.5 -95 70.5 -220 q0 -14 -9 -23 q-9 -9 -23 -9 q-14 0 -23 9 q-9 9 -9 23 q-3 136 -93.5 226 q-90.5 90 -226.5 93 q-136 -3 -226 -93 q-90 -90 -93 -226 q-1 -14 -10 -23 q-9 -9 -22.5 -9 q-13.5 0 -22.5 9 q-9 9 -9 23 q2 125 70 220 q68 95 180 138 q-56 34 -89 90.5 q-33 56.5 -33 126.5 q2 108 74.5 180 q72.5 72 180.5 75 q109 -3 181 -75 q72 -72 75 -180 q-1 -70 -33.5 -126.5 q-32.5 -56.5 -88.5 -90.5 ZM384 751 q-81 -2 -135 -56 q-54 -54 -57 -135 q3 -82 57 -136 q54 -54 135 -56 q82 2 136 56 q54 54 56 136 q-2 81 -56 135 q-54 54 -136 56 Z" /><glyph glyph-name="notice" unicode="&#xe650;" d="M569 17 q0 -9 -4.5 -17.5 q-4.5 -8.5 -8.5 -13.5 q-58 51 -143 133 l-95 92 q-7 8 -19 9 l-161 0 q-11 0 -18.5 8 q-7.5 8 -7.5 20 l0 301 q0 12 7.5 20 q7.5 8 18.5 8 l181 0 q8 0 14 5 q7 1 12 6 l85 80 q75 71 126 115 q4 -5 8.5 -13.5 q4.5 -8.5 4.5 -17.5 l0 -735 ZM528 830 q-46 -39 -118 -106.5 q-72 -67.5 -96 -90.5 l-176 0 q-33 -1 -55 -24.5 q-22 -23.5 -23 -59.5 l0 -301 q1 -36 23 -59.5 q22 -23.5 55 -24.5 l151 0 q30 -29 109 -105 q79 -76 129 -119 q13 -11 28 -11 q11 0 21 5 q19 11 32 34.5 q13 23.5 13 48.5 l0 735 q0 25 -13 48.5 q-13 23.5 -32 34.5 q-26 13 -48 -5 ZM733 567 q-8 7 -18.5 6 q-10.5 -1 -17.5 -10 q-7 -9 -6 -20 q1 -11 9 -19 q4 -1 32 -39.5 q28 -38.5 36 -105.5 q5 -87 -68 -174 q-7 -9 -6.5 -20 q0.5 -11 8.5 -19 q8 -8 18.5 -8 q10.5 0 18.5 10 q87 104 81 215 q-10 84 -45 132.5 q-35 48.5 -42 51.5 ZM821 714 q-8 7 -19 6.5 q-11 -0.5 -18 -9.5 q-7 -9 -6.5 -20 q0.5 -11 8.5 -19 q4 -1 39 -47 q35 -46 65 -126 q31 -94 16 -191 q-18 -121 -108 -241 q-7 -9 -6 -20 q1 -11 9 -18 q8 -7 17 -7 q12 0 20 10 q99 131 120 268 q16 110 -20 217 q-33 91 -72.5 142.5 q-39.5 51.5 -44.5 54.5 Z" /><glyph glyph-name="yes" unicode="&#xe652;" d="M512 864 q-204 -5 -339.5 -140.5 q-135.5 -135.5 -140.5 -339.5 q5 -204 140.5 -339.5 q135.5 -135.5 339.5 -140.5 q204 5 339.5 140.5 q135.5 135.5 140.5 339.5 q-5 204 -140.5 339.5 q-135.5 135.5 -339.5 140.5 ZM512 -40 q-180 5 -299.5 124.5 q-119.5 119.5 -124.5 299.5 q5 180 124.5 299.5 q119.5 119.5 299.5 124.5 q180 -5 299.5 -124.5 q119.5 -119.5 124.5 -299.5 q0 -85 -32 -162 q-32 -77 -92.5 -137.5 q-60.5 -60.5 -137.5 -92.5 q-77 -32 -162 -32 ZM650 530 l-212 -220 l-66 68 q-9 9 -22 9 q-13 0 -22 -9.5 q-9 -9.5 -9 -22.5 q0 -13 9 -23 l88 -91 q9 -9 22 -9 q13 0 22 9 l234 240 q9 10 9 22.5 q0 12.5 -9 22.5 q-9 10 -21.5 11 q-12.5 1 -22.5 -7 Z" /><glyph glyph-name="delete" unicode="&#xe653;" d="M349 570 l70 0 l0 -489 l-70 0 l0 489 ZM605 570 l70 0 l0 -489 l-70 0 l0 489 ZM943 780 l-198 0 q-21 0 -40.5 10.5 q-19.5 10.5 -38.5 24 q-19 13.5 -40 24 q-21 10.5 -44 10.5 l-140 0 q-23 0 -44 -10.5 q-21 -10.5 -40 -24 q-19 -13.5 -38.5 -24 q-19.5 -10.5 -40.5 -10.5 l-198 0 q-14 -1 -24 -10.5 q-10 -9.5 -10 -24.5 q0 -15 10 -25 q10 -10 24 -10 l198 0 q37 1 66 15.5 q29 14.5 52 30.5 q13 9 25 16 q12 7 20 8 l140 0 q8 -1 20 -8 q12 -7 25 -16 q23 -16 51.5 -30.5 q28.5 -14.5 64.5 -15.5 l200 0 q14 0 24 10 q10 10 10 25 q0 15 -10 24.5 q-10 9.5 -24 10.5 ZM838 105 l0 -93 l0 0 q-1 -10 -7.5 -16 q-6.5 -6 -15.5 -7 l0 -1 l-606 0 l0 1 q-9 1 -15.5 7 q-6.5 6 -7.5 16 l0 628 l-70 0 l0 -628 q1 -40 27.5 -66 q26.5 -26 65.5 -27 l606 0 q39 1 65.5 27 q26.5 26 27.5 66 l0 628 l-70 0 l0 -535 Z" /><glyph glyph-name="comment" unicode="&#xe654;" d="M992 734 q-1 37 -25.5 61 q-24.5 24 -61.5 25 l-787 0 q-36 -1 -60.5 -25.5 q-24.5 -24.5 -25.5 -60.5 l0 -546 l65 0 l1 545 q0 9 6 15 q6 6 15 6 l0 1 l786 0 l0 -1 q9 0 15 -6 q6 -6 6 -15 l0 -545 q0 -9 -6 -15 q-6 -6 -15 -6 l0 -1 l-279 0 l-114 -114 l-114 114 l-279 0 l0 1 q-9 0 -15 6 q-6 6 -6 15 l-66 0 q1 -37 25.5 -62 q24.5 -25 61.5 -26 l240 0 l153 -152 l153 152 l241 0 q36 2 60.5 26.5 q24.5 24.5 25.5 61.5 l0 546 ZM294 471 l0 0 ZM228 471 q1 -18 9.5 -32.5 q8.5 -14.5 24 -23.5 q15.5 -9 32.5 -9 q17 0 32.5 9 q15.5 9 24 23.5 q8.5 14.5 8.5 32.5 q0 28 -18.5 46.5 q-18.5 18.5 -46.5 18.5 q-28 0 -46.5 -18.5 q-18.5 -18.5 -19.5 -46.5 ZM577 471 l0 0 q0 28 -18.5 46.5 q-18.5 18.5 -46.5 18.5 q-28 0 -46.5 -18.5 q-18.5 -18.5 -18.5 -46.5 l0 0 q0 -28 18.5 -46 q18.5 -18 46.5 -18.5 q28 -0.5 46.5 18 q18.5 18.5 18.5 46.5 ZM730 406 q28 0 46.5 18.5 q18.5 18.5 19.5 46.5 l0 0 q-1 28 -19.5 46.5 q-18.5 18.5 -46.5 18.5 q-28 0 -46.5 -18.5 q-18.5 -18.5 -18.5 -46.5 l0 0 q0 -28 18.5 -46 q18.5 -18 46.5 -19 Z" /><glyph glyph-name="edit" unicode="&#xe621;" d="M116 59 l0 0 l0 651 l0 0 q1 30 20.5 49.5 q19.5 19.5 48.5 20.5 l0 0 l419 0 l0 70 l-419 0 l0 0 q-59 -2 -98 -41 q-39 -39 -41 -98 l0 0 l0 -652 l0 0 q2 -59 41 -98.5 q39 -39.5 98 -41.5 l0 70 q-29 1 -48.5 20.5 q-19.5 19.5 -20.5 49.5 ZM289 162 q10 -10 23.5 -10 q13.5 0 24.5 10 l608 607 q9 10 9 23.5 q0 13.5 -10 24 q-10 10.5 -23.5 10.5 q-13.5 0 -23.5 -10 l-608 -607 q-10 -11 -10 -24.5 q0 -13.5 10 -23.5 ZM673 816 q-1 14 -10.5 23.5 q-9.5 9.5 -23.5 10.5 l-35 0 l0 -70 l35 0 q15 1 24.5 11 q9.5 10 9.5 25 ZM942 524 q-15 0 -25 -10 q-10 -10 -10 -25 l0 -431 l0 0 q-1 -29 -20.5 -48.5 q-19.5 -19.5 -49.5 -20.5 l-652 0 l0 -70 l654 0 q58 2 96.5 41 q38.5 39 40.5 97 l1 0 l0 432 q-1 15 -10.5 25 q-9.5 10 -24.5 10 Z" /><glyph glyph-name="feedback" unicode="&#xe60e;" d="M1005 868 q13 -8 17 -22 q4 -14 -3 -27 l-207 -349 q-7 -12 -21.5 -16.5 q-14.5 -4.5 -27 3 q-12.5 7.5 -16.5 21.5 q-4 14 2 27 l208 349 q7 14 21.5 17.5 q14.5 3.5 26.5 -3.5 ZM852 803 l-40 -70 l-672 0 q-11 0 -17 -6.5 q-6 -6.5 -7 -16.5 l0 -698 q1 -11 7 -17 q6 -6 17 -7 l698 0 q10 1 16.5 7 q6.5 6 6.5 17 l0 433 l70 121 l0 -554 q-1 -40 -27.5 -66 q-26.5 -26 -65.5 -27 l-698 0 q-40 1 -66 27 q-26 26 -27 66 l0 698 q1 39 27 65.5 q26 26.5 66 27.5 l712 0 ZM268 268 l442 0 q14 -1 24 -11 q10 -10 10 -24.5 q0 -14.5 -10 -24.5 q-10 -10 -24 -10 l-442 0 q-15 0 -25 10 q-10 10 -10 24.5 q0 14.5 10 24.5 q10 10 25 11 ZM268 524 l349 0 q14 -1 24 -11 q10 -10 10 -24.5 q0 -14.5 -10 -24.5 q-10 -10 -24 -10 l-349 0 q-15 0 -25 10 q-10 10 -10 24.5 q0 14.5 10 24.5 q10 10 25 11 Z" /><glyph glyph-name="location" unicode="&#xe60f;" d="M512 340 q47 1 77.5 32 q30.5 31 30.5 77 q0 46 -30.5 76.5 q-30.5 30.5 -77.5 30.5 q-47 0 -77.5 -30.5 q-30.5 -30.5 -30.5 -76.5 q0 -46 30.5 -77 q30.5 -31 77.5 -32 ZM512 275 q-74 2 -123.5 51.5 q-49.5 49.5 -51.5 121.5 q2 74 51.5 123.5 q49.5 49.5 123.5 51.5 q74 -2 123.5 -51.5 q49.5 -49.5 51.5 -123.5 q-2 -72 -51.5 -121.5 q-49.5 -49.5 -123.5 -51.5 ZM558 -9 q225 214 273 318 q30 66 30 145 q-5 146 -107.5 242.5 q-102.5 96.5 -241.5 100.5 q-139 -4 -241.5 -100.5 q-102.5 -96.5 -107.5 -242.5 q0 -79 30 -145 q48 -104 273 -318 q21 -18 46 -18 q25 0 46 18 ZM606 -55 l-5 -4 q-41 -37 -93 -36 q-52 1 -92 40 q-229 243 -281 353 q-37 78 -38 169 q6 168 127.5 279.5 q121.5 111.5 287.5 115.5 q166 -4 287.5 -115.5 q121.5 -111.5 127.5 -279.5 q-1 -91 -38 -169 q-51 -110 -283 -353 Z" /><glyph glyph-name="message" unicode="&#xe61e;" d="M353 484 q23 0 38.5 -15.5 q15.5 -15.5 15.5 -39 q0 -23.5 -15.5 -38.5 q-15.5 -15 -39 -15 q-23.5 0 -38.5 15 q-15 15 -15 38 q0 23 15 39 q15 16 39 16 ZM599 439 q1 17 18 28 l76 44 q12 6 24.5 3 q12.5 -3 20 -14.5 q7.5 -11.5 4.5 -24 q-3 -12.5 -16 -19.5 l-29 -15 l29 -16 q11 -7 15 -19 q4 -12 -2.5 -24 q-6.5 -12 -19 -15.5 q-12.5 -3.5 -26.5 4.5 l-76 44 q-9 0 -13.5 7.5 q-4.5 7.5 -4.5 16.5 ZM449 -4 q-125 -62 -200 -45.5 q-75 16.5 -77 23.5 q1 0 28 19.5 q27 19.5 61 58.5 q-104 56 -166 148 q-62 92 -63 206 q5 176 140 293 q135 117 340 121 q205 -4 340 -121 q135 -117 140 -293 q-5 -176 -140 -293 q-135 -117 -340 -122 q-32 1 -63 5 ZM346 85 q-17 -38 -39 -59 q-22 -21 -24 -22 q3 -3 51.5 1 q48.5 4 109.5 56 q33 -4 68 -4 q176 4 293 102.5 q117 98.5 122 246.5 q-5 148 -122 246.5 q-117 98.5 -293 102.5 q-176 -4 -293 -102.5 q-117 -98.5 -122 -246.5 q2 -110 70 -194.5 q68 -84.5 179 -126.5 Z" /><glyph glyph-name="icon_threeline_fill" unicode="&#xe636;" d="M21 -64 l0 -28 q0 -12 8 -20 q8 -8 20 -8 l1120 0 q12 0 20 8 q8 8 8 20 l0 28 q0 12 -8 20 q-8 8 -20 8 l-1120 0 q-12 0 -20 -8 q-8 -8 -8 -20 ZM21 398 l0 -28 q0 -12 8 -20 q8 -8 20 -8 l1120 0 q12 0 20 8 q8 8 8 20 l0 28 q0 12 -8 20 q-8 8 -20 8 l-1120 0 q-12 0 -20 -8 q-8 -8 -8 -20 ZM21 860 l0 -28 q0 -12 8 -20 q8 -8 20 -8 l1120 0 q12 0 20 8 q8 8 8 20 l0 28 q0 12 -8 20 q-8 8 -20 8 l-1120 0 q-12 0 -20 -8 q-8 -8 -8 -20 Z" /><glyph glyph-name="top" unicode="&#xe618;" d="M865 371 q11 -12 11 -28 q0 -16 -12 -28 q-11 -11 -27 -11 q-7 0 -14 2 q-8 4 -14 10 l-286 287 l0 -684 q0 -17 -10.5 -28 q-10.5 -11 -27.5 -11 q-17 0 -28 11 q-11 11 -11 28 l0 683 l-250 -249 q-12 -13 -28 -13 q-15 0 -27 13 q-11 12 -11 26 q0 16 12 28 l314 314 q6 6 13 8 q7 4 16 4 q2 0 3 -1 q16 1 28 -11 l349 -350 ZM911 810 q17 0 28 11 q11 11 11 28 q0 17 -11 28 q-11 11 -28 11 l-853 0 q-17 0 -28 -11 q-11 -11 -11 -28 q0 -17 11 -28 q11 -11 28 -11 l853 0 Z" /><glyph glyph-name="*" unicode="&#xe999;" d="M803 -67 l-286 0 l-285 0 q0 33 -1 254 l0 255 l30 0 q118 4 197.5 87 q79.5 83 82.5 192 q0 63 21 89 q22 26 66 25 q36 0 59 -36 q25 -38 26 -106 q0 -34 -8 -83 q-8 -49 -19 -76 l-14 -36 l39 0 q35 -2 71 0 l66 0 l12 0 q55 -2 84 -36.5 q29 -34.5 20 -88.5 l-63 -356 q-7 -35 -35 -59 q-28 -23 -63 -25 ZM781 550 l-34 0 q9 36 14 76 q6 40 6 67 q-3 89 -41 142 q-37 53 -100 53 q-65 0 -101 -41 q-37 -41 -37 -126 q-2 -87 -68 -155 q-65 -68 -159 -71 l-26 0 l-5 0 q-22 -1 -37 -16 q-14 -15 -15 -37 l1 -509 q1 -22 16 -37 q15 -15 37 -16 l571 1 q55 1 97 36 q42 36 53 91 l64 357 q12 78 -32.5 131.5 q-44.5 53.5 -125.5 54.5 l-13 0 q-32 -1 -65 -1 ZM73 437 l29 0 q11 1 19 9 q7 7 7 18 q0 11 -7 19 q-8 7 -19 7 l-49 0 q-14 0 -23.5 -9 q-9.5 -9 -9.5 -24 l0 -543 q0 -14 10 -24 q10 -10 23 -10 l49 0 q11 1 19 9 q7 7 7 18 q0 12 -7 19 q-8 7 -19 7 l-29 0 l0 504 Z" /><glyph glyph-name="*2" unicode="&#xe666;" d="M786 552 q-16 -1 -27 -1 q8 35 13 75 q5 39 5 66 q-1 90 -39 142 q-38 54 -101 54 q-66 0 -103 -41.5 q-37 -41.5 -37 -126.5 q-2 -87 -66 -154 q-65 -66 -158 -70 q-16 1 -26 0 l-4 0 q-24 0 -40 -16 q-14 -16 -15 -40 l1 -504 q1 -23 17 -39 q16 -16 39 -17 l561 1 q58 2 103 39 q45 37 56 94 l60 341 q13 83 -34 139 q-47 57 -131 58 l-74 0 ZM133 468 q0 12 -8 20 q-9 8 -21 9 l-55 0 q-11 0 -20 -9 q-8 -8 -8 -20 l0 -559 q0 -12 8 -20 q9 -9 21 -9 l55 0 q12 0 20 9 q8 8 8 20 l0 559 Z" /><glyph glyph-name="round_close_fill" unicode="&#xe635;" d="M522 888 q214 -6 357 -147 q141 -143 147 -357 q-6 -214 -147 -357 q-143 -141 -357 -147 q-214 6 -356 148 q-142 142 -148 356 q6 214 147 357 q143 141 357 147 ZM728 229 l-155 155 l155 153 q11 11 11 26 q0 15 -11 26 q-10 10 -25 10 q-14 0 -26 -10 l-155 -154 l-154 155 q-11 11 -26 11 q-15 0 -26 -11 q-10 -11 -10 -25 q0 -14 10 -26 l155 -155 l-155 -153 q-11 -11 -11 -26 q0 -14 11 -25 q10 -11 25 -11 q15 0 26 10 l155 154 l154 -155 q11 -11 26 -11 q15 0 26 11 q10 11 10 25 q0 15 -10 26 Z" /><glyph glyph-name="**" unicode="&#xe637;" d="M77 -64 l0 896 l1008 0 l0 -896 l-1008 0 ZM77 888 q-23 0 -39 -16.5 q-16 -16.5 -17 -39.5 l0 -896 q0 -11 5 -22 q4 -9 12 -18 q8 -8 18 -12 q10 -4 21 -4 l1008 0 q24 0 40 16 q16 17 17 40 l0 896 q-1 25 -17 40.5 q-16 15.5 -40 15.5 l-1008 0 ZM340 196 l-133 -114 q-5 -4 -13 -5 q-6 -1 -14 0 q-7 3 -12 9 q-5 5 -7 13 q-1 7 2 15 q2 6 8 11 l132 113 q33 27 79 44 q46 18 88 18 l27 0 q32 0 69 14 q36 14 61 33 l69 59 q31 27 78 44 q46 18 88 18 l112 0 q12 0 20 -8 q7 -8 7 -20 q0 -11 -7 -19 q-8 -8 -20 -9 l-112 0 q-31 0 -69 -15 q-37 -13 -61 -33 l-69 -59 q-32 -26 -78.5 -43 q-46.5 -17 -87.5 -18 l-27 0 q-32 0 -68 -15 q-38 -13 -62 -33 ZM302 566 q0 29 20 49 q19 20 49 21 q31 -1 50 -21 q20 -20 20 -49 q0 -30 -20 -49 q-19 -20 -50 -21 q-30 1 -49 21 q-20 19 -20 49 Z" /><glyph glyph-name="view" unicode="&#xe643;" d="M512 736 q242 -22 376 -176 q134 -154 136 -176 q-2 -22 -136 -176 q-134 -154 -376 -176 q-242 22 -376 176 q-134 154 -136 176 q2 22 136 176 q134 154 376 176 ZM512 672 q-170 -11 -283 -114.5 q-113 -103.5 -154 -173.5 q41 -70 154 -173.5 q113 -103.5 283 -114.5 q170 11 283 114.5 q113 103.5 154 173.5 q-41 70 -154 173.5 q-113 103.5 -283 114.5 ZM512 608 q95 -2 158.5 -65.5 q63.5 -63.5 65.5 -158.5 q-2 -95 -65.5 -158.5 q-63.5 -63.5 -158.5 -65.5 q-95 2 -158.5 65.5 q-63.5 63.5 -65.5 158.5 q2 95 65.5 158.5 q63.5 63.5 158.5 65.5 ZM512 544 q-68 -2 -113 -47 q-45 -45 -47 -113 q2 -68 47 -113 q45 -45 113 -47 q68 2 113 47 q45 45 47 113 q-2 68 -47 113 q-45 45 -113 47 Z" /></font>
</defs>
</svg>
